#TITLE:Winter;
#SUBTITLE:SDO China lv19 - [N]hok[Q] Simfile;
#ARTIST:Banya;
#TITLETRANSLIT:;
#SUBTITLETRANSLIT:;
#ARTISTTRANSLIT:;
#CREDIT:[N]hok[Q];
#BANNER:bn-winter.png;
#BACKGROUND:bg-winter.png;
#LYRICSPATH:;
#CDTITLE:cd-winter.png;
#MUSIC:Winter.mp3;
#OFFSET:-0.052;
#SAMPLESTART:4.338;
#SAMPLELENGTH:14.285;
#SELECTABLE:YES;
#DISPLAYBPM:168.000;
#BPMS:0.000=168.008,48.000=167.999,49.000=168.008,61.000=167.999,62.000=168.008,63.000=167.999,64.000=168.008,65.000=167.999,66.000=168.008,67.000=167.999,68.000=168.008,69.000=167.999,70.000=168.008,71.000=167.999,72.000=168.008,73.000=167.999,74.000=168.008,75.000=167.999,76.000=168.008,77.000=167.999,78.000=168.008,79.000=167.999,80.000=168.008,81.000=167.999,82.000=168.008,83.000=167.999,84.000=168.008,85.000=167.999,86.000=168.008,87.000=167.999,88.000=168.008,89.000=167.999,90.000=168.008,91.000=167.999,92.000=168.008,93.000=167.999,94.000=168.008,95.000=167.999,96.000=168.008,97.000=167.999,98.000=168.008,99.000=167.999,100.000=168.008,101.000=167.999,102.000=168.008,103.000=167.999,104.000=168.008,105.000=167.999,106.000=168.008,107.000=167.999,108.000=168.008,109.000=167.999,110.000=168.008,111.000=167.999,112.000=168.008,113.000=167.999,114.000=168.008,115.000=167.999,116.000=168.008,117.000=167.999,118.000=168.008,119.000=167.999,120.000=168.008,121.000=167.999,122.000=168.008,123.000=167.999,126.000=168.008,127.000=167.999,130.000=168.008,131.000=167.999,134.000=168.008,135.000=167.999,138.000=168.008,139.000=167.999,142.000=168.008,143.000=167.999,146.000=168.008,147.000=167.999,150.000=168.008,151.000=167.999,154.000=168.008,155.000=167.999,158.000=168.008,159.000=167.999,162.000=168.008,163.000=167.999,166.000=168.008,167.000=167.999,170.000=168.008,171.000=167.999,174.000=168.008,175.000=167.999,178.000=168.008,179.000=167.999,182.000=168.008,183.000=167.999,186.000=168.008,187.000=167.999,190.000=168.008,191.000=167.999,194.000=168.008,195.000=167.999,198.000=168.008,199.000=167.999,202.000=168.008,203.000=167.999,206.000=168.008,207.000=167.999,210.000=168.008,211.000=167.999,214.000=168.008,215.000=167.999,218.000=168.008,219.000=167.999,222.000=168.008,223.000=167.999,226.000=168.008,227.000=167.999,230.000=168.008,231.000=167.999,234.000=168.008,235.000=167.999,238.000=168.008,239.000=167.999,242.000=168.008,243.000=167.999,249.000=168.008,250.000=167.999,256.000=168.008,257.000=167.999,263.000=168.008,264.000=167.999,270.000=168.008,271.000=167.999,274.000=168.008,275.000=167.999,281.000=168.008,282.000=167.999,288.000=168.008,289.000=167.999,295.000=168.008,296.000=167.999,298.000=168.008,299.000=167.999,305.000=168.008,306.000=167.999,312.000=168.008,313.000=167.999,319.000=168.008,320.000=167.999,324.000=168.008,325.000=167.999,331.000=168.008,332.000=167.999,338.000=168.008,339.000=167.999,345.000=168.008,346.000=167.999,348.000=168.008,349.000=167.999,355.000=168.008,356.000=167.999,362.000=168.008,363.000=167.999,369.000=168.008,370.000=167.999,374.000=168.008,375.000=167.999,381.000=168.008,382.000=167.999,388.000=168.008,389.000=167.999,395.000=168.008,396.000=167.999,398.000=168.008,399.000=167.999,405.000=168.008,406.000=167.999,412.000=168.008,413.000=167.999,419.000=168.008,420.000=167.999,423.000=168.008,424.000=167.999,430.000=168.008,431.000=167.999,437.000=168.008,438.000=167.999,444.000=168.008,445.000=167.999,447.000=168.008,448.000=167.999,454.000=168.008,455.000=167.999,461.000=168.008,462.000=167.999,468.000=168.008,469.000=167.999,472.000=168.008,473.000=167.999,479.000=168.008,480.000=167.999,486.000=168.008,487.000=167.999,489.000=167.989,490.000=167.999,492.000=168.008,494.000=167.989,495.000=168.008,496.000=167.989,497.000=168.008,498.000=167.989,499.000=168.008,500.000=167.989,501.000=168.008,502.000=167.989;
#STOPS:;
#BGCHANGES:;
// cache tags:
#FIRSTBEAT:4.000;
#LASTBEAT:500.000;
#SONGFILENAME:Songs/SDO pack 5/Winter/Winter.sm;
#HASMUSIC:1;
#HASBANNER:1;
#MUSICLENGTH:179.808;
// end cache tags

//---------------dance-single - ----------------
#NOTES:
     dance-single:
     :
     Beginner:
     8:
     0.755,0.695,1.000,0.673,0.000,619.000,210.000,121.000,0.000,1.000:
0000
0000
0000
0000
,
0100
0010
0001
1000
0010
0100
0001
0010
,
2000
0001
0010
3100
0002
1000
0100
0013
,
1001
0000
0100
1000
0000
1000
0001
0000
,
0110
0000
0010
0100
0000
0100
0010
1000
,
0011
0000
0011
0100
0000
0010
1100
0010
,
1100
0011
1100
0011
,
1100
0000
0011
0000
0010
1000
0010
1000
,
0101
0000
0011
1000
0000
0001
1100
0000
,
1010
0000
1100
0001
0000
1000
0011
1000
,
0110
0000
0011
0100
0000
0010
0101
1000
,
0110
0011
1100
0011
,
0011
0000
1100
0000
0001
0100
0001
0100
,
0011
0000
1100
0010
0000
0100
0001
0100
,
0011
0000
0011
0100
0000
0010
1100
1000
,
0011
0000
1100
0010
0000
0100
0011
0100
,
0011
0011
0011
0011
,
1100
0011
1100
0011
,
1100
0000
1010
0000
0101
0001
1010
0100
,
1010
1010
1010
1010
,
1001
1001
1001
1001
,
1100
1100
1100
1100
,
1001
1001
1001
1001
,
0011
0110
0110
0110
,
0110
0001
0010
0010
0001
0100
0001
1000
,
0011
0011
0011
0011
,
0101
1000
1000
0001
0001
1000
1000
1000
,
0110
1100
1100
1100
,
0101
0010
0100
0010
0100
0010
0100
0010
,
0011
1010
1010
1010
,
1010
0001
0100
1000
0100
0010
0100
1000
,
0110
1010
0110
0101
,
0110
1010
0011
1100
,
0011
1010
0101
1001
,
0110
0000
0000
0000
0110
0000
0000
0000
2000
0000
0000
3000
0200
0000
0000
0300
,
2000
0000
0000
3000
0020
0000
0000
0030
2000
0000
0000
3000
0002
0000
0000
0003
,
0110
0011
0101
0011
,
1010
0000
0000
0000
1100
0000
0000
0000
0200
0000
0000
0300
0020
0000
0000
0030
,
0002
0000
0000
0003
0020
0000
0000
0030
0200
0000
0000
0300
0002
0000
0000
0003
,
0200
0000
0010
0300
0002
0000
0100
0003
,
1010
0000
0001
0000
1100
0000
0000
0000
0200
0000
0000
0300
0002
0000
0000
0003
,
2000
0000
0000
3000
0020
0000
0000
0030
2000
0000
0000
3000
0002
0000
0000
0003
,
0020
0000
0000
0030
2000
0000
0000
3000
0002
0000
0000
0003
2000
0000
0000
3000
,
0200
0000
0000
0300
0200
0000
0000
0300
0200
0000
0000
0300
0200
0000
0000
0300
,
0020
0000
0000
0030
0020
0000
0000
0030
0020
0000
0000
0030
0020
0000
0000
0030
,
1001
1001
1001
1001
,
1001
0000
0110
0000
0011
0100
0011
0000
,
1100
0010
0100
0010
0100
0010
0100
0010
,
0101
0101
0101
0101
,
0011
0100
0010
0100
0010
0100
0010
0100
,
0011
0011
0011
0011
,
0011
0100
0001
0100
0001
0100
0001
0100
,
0011
0011
0011
0011
,
0011
0100
0001
0100
0001
0100
0001
0100
,
0011
0011
0011
0011
,
0110
0110
0110
0110
,
0110
1000
0100
0001
1000
0001
0100
0001
,
1000
0010
1000
0010
1000
0010
1000
0010
,
2000
0000
3010
0100
0002
0000
1003
0100
,
2000
3002
0000
0023
,
1030
0001
0100
0001
1000
0000
0001
0000
,
1000
0002
0003
0020
,
0230
0000
0301
1000
0020
0000
1030
1000
,
0002
0000
1003
1000
0020
0000
1030
1000
,
0002
0000
1003
1000
0002
0000
0103
0100
,
0002
0000
1003
1000
0020
0000
1030
1000
,
0200
0000
0000
0000
0000
0010
1300
0001
,
0020
0000
0000
0000
0000
0100
0031
1000
,
0020
0000
0000
0000
0000
0100
0031
1000
,
0020
0000
0000
0000
0000
0100
0031
0001
,
2000
0000
0000
3200
,
0310
1000
0001
0100
0001
1000
0100
0001
,
1000
0010
0002
0000
0000
0000
0020
0003
,
0000
0000
0000
0030
,
0021
0000
0130
0001
2000
0000
3100
0001
,
2000
3002
0000
0023
,
0130
0001
1000
0001
2000
0000
3200
0000
,
2300
3002
0000
2003
,
3100
0001
1000
0010
2000
0000
3002
0000
,
2003
3020
0000
2030
,
3002
0000
0103
0001
2000
0000
3010
1000
,
0002
0000
0103
0001
2000
0000
3010
1000
,
0002
0000
0103
0001
2000
0000
3010
1000
,
0002
0000
0000
0000
0000
0000
0013
0100
,
0001
1000
0100
1000
0001
0010
0001
1000
,
0002
0000
0203
0000
0000
0000
0000
0310
,
0001
0010
0100
0010
0001
0010
1000
0100
,
0020
0000
0032
0000
0000
0000
0013
1000
,
0002
0000
0103
0001
2000
0000
0000
0000
,
3220
0000
0000
0000
,
0330
0001
0010
0010
0001
0100
0001
1000
,
0011
0011
0011
0011
,
0101
1000
1000
0001
0001
1000
1000
1000
,
0110
1100
1100
1100
,
0101
0010
0100
0010
0100
0010
0100
0010
,
0011
1010
1010
1010
,
1010
0001
0100
1000
0100
0010
0100
1000
,
0110
1010
0110
0101
,
0110
1010
0011
1100
,
0011
1010
0101
1001
,
0110
0000
0000
0000
0110
0000
0000
0000
2000
0000
0000
3000
0200
0000
0000
0300
,
2000
0000
0000
3000
0020
0000
0000
0030
2000
0000
0000
3000
0002
0000
0000
0003
,
0110
0011
0101
0011
,
1010
0000
0000
0000
1100
0000
0000
0000
0200
0000
0000
0300
0020
0000
0000
0030
,
0002
0000
0000
0003
0020
0000
0000
0030
0200
0000
0000
0300
0002
0000
0000
0003
,
0200
0000
0010
0300
0002
0000
0100
0003
,
1010
0000
0001
0000
1100
0000
0000
0000
0200
0000
0000
0300
0002
0000
0000
0003
,
2000
0000
0000
3000
0020
0000
0000
0030
2000
0000
0000
3000
0002
0000
0000
0003
,
0020
0000
0000
0030
2000
0000
0000
3000
0002
0000
0000
0003
2000
0000
0000
3000
,
0200
0000
0000
0300
0200
0000
0000
0300
0200
0000
0000
0300
0200
0000
0000
0300
,
0020
0000
0000
0030
0020
0000
0000
0030
0020
0000
0000
0030
0020
0000
0000
0030
,
1001
1001
1001
1001
,
1001
0000
0110
0000
0011
0100
0011
0000
,
1100
0010
0100
0010
0100
0010
0100
0010
,
0101
0101
0101
0101
,
0011
0100
0010
0100
0010
0100
0010
0100
,
0011
0011
0011
0011
,
0011
0100
0001
0100
0001
0100
0001
0100
,
0011
0011
0011
0011
,
0011
0100
0001
0100
0001
0100
0001
0100
,
0011
0011
0011
0011
,
0110
0110
0110
0110
,
0110
1000
0100
0001
1000
0001
0100
0001
,
1000
0022
0000
0000
,
0000
0000
0000
0000
,
0033
0000
0000
0000
;

//---------------dance-single - ----------------
#NOTES:
     dance-single:
     :
     Easy:
     10:
     0.965,1.000,1.000,0.679,0.097,747.000,332.000,122.000,0.000,21.000:
0000
0000
0000
0000
,
0100
0100
0001
1000
0010
0100
0001
1000
,
0010
0000
1000
0000
0001
1000
0010
1000
0010
0001
0100
0001
1000
0010
1000
0001
,
0110
0000
1100
1001
0000
1100
0011
0000
,
0110
0000
0011
1100
0000
1100
0011
0011
,
0011
0000
0011
1100
0000
0011
1100
1100
,
1100
0011
1100
0011
,
1100
0000
0011
0000
0011
1100
0011
1100
,
0011
0000
0011
0011
0000
1100
1100
0000
,
0011
0000
1100
0011
0000
1100
0011
0011
,
1100
0000
0011
1010
0000
1100
0101
1100
,
0110
0011
1100
0011
,
0011
0000
1100
0000
0011
1100
0011
1100
,
0011
0000
1100
0011
0000
1100
0011
1100
,
0011
0000
0011
1100
0000
0011
1100
1100
,
0011
0000
1100
0011
0000
1100
0011
1100
,
0011
0011
0011
0011
,
1100
0011
1100
0011
,
1100
0000
1010
0000
0101
1010
1010
0101
,
1011
0010
1010
0010
1010
0010
1010
0010
,
1011
1000
1001
1000
1001
1000
1001
1000
,
1101
0100
1100
0100
1100
0100
1100
0100
,
1101
0001
1001
0001
1001
0001
1001
0001
,
1011
0010
0110
0010
0110
0010
0110
0010
,
0110
0000
1000
0010
0001
0000
1000
0010
0001
0000
1000
0010
0001
0000
1000
0000
,
0011
1000
0011
1000
0011
1000
0011
1000
,
0121
0000
1000
0100
0001
0000
1000
0100
0001
0000
1000
0100
0001
0000
1000
0000
,
1130
0001
1100
0001
1100
0001
1100
0001
,
2101
0000
0010
0001
0100
0000
0010
0001
0100
0000
0010
0001
0100
0000
0010
0000
,
3011
0100
1010
0100
1010
0100
1010
0100
,
1012
0000
1000
0010
0100
0000
1000
0010
0100
0000
1000
0010
0100
0000
1000
0000
,
0113
1000
1010
0001
0110
1000
0101
0001
,
0110
1010
0011
1100
,
0011
1010
0101
1001
,
0110
0000
0000
0000
1111
0000
0000
0000
2001
0000
0000
3000
0201
0000
0000
0300
,
2001
0000
0000
3000
0120
0000
0000
0030
2010
0000
0000
3000
1002
0000
0000
0003
,
0110
0011
0101
0011
,
1010
0000
0000
0000
1100
0000
0000
0000
0210
0000
0000
0300
0021
0000
0000
0030
,
1002
0000
0000
0003
0120
0000
0000
0030
0210
0000
0000
0300
1002
0000
0000
0003
,
0210
0000
1010
0300
0012
0000
0110
0003
,
1010
0000
0001
0000
1100
0000
0000
0000
1200
0000
0000
0300
0012
0000
0000
0003
,
2010
0000
0000
3000
0021
0000
0000
0030
2100
0000
0000
3000
0102
0000
0000
0003
,
0120
0000
0000
0030
2001
0000
0000
3000
0012
0000
0000
0003
2100
0000
0000
3000
,
0201
0000
0000
0300
0201
0000
0000
0300
0201
0000
0000
0300
0201
0000
0000
0300
,
1020
0000
0000
0030
1020
0000
0000
0030
1020
0000
0000
0030
1020
0000
0000
0030
,
1001
1001
1001
1001
,
1001
0000
0110
0000
1001
0101
1001
0000
,
1100
0010
0100
0010
0100
0010
0100
0010
,
0110
0001
0110
1000
0110
0001
0110
1000
,
0011
0100
0010
0100
0010
0100
0010
0100
,
0011
0100
0011
1000
0011
0100
0011
1000
,
0011
0100
0001
0100
0001
0100
0001
0100
,
0011
1000
0011
1000
0011
1000
0011
1000
,
0011
0100
0001
0100
0001
0100
0001
0100
,
1001
0001
1001
0001
1001
0001
1001
0001
,
1011
1000
1010
1000
1010
1000
1010
1000
,
1010
1000
1100
1000
1100
1000
1100
1000
,
1100
1000
1100
1000
1100
1000
1100
1000
,
2000
0000
3010
0100
0002
0000
1003
0100
,
2000
3002
0000
0023
,
1030
0001
0100
0001
1000
0000
0001
0000
,
1000
0002
0003
0020
,
0230
0000
0301
1000
0020
0000
1030
1000
,
0002
0000
1003
1000
0020
0000
1030
1000
,
0002
0000
1003
1000
0002
0000
0103
0100
,
0002
0000
1003
1000
0020
0000
1030
1000
,
0200
0000
0000
0000
0000
0010
1300
0001
,
0020
0000
0000
0000
0000
0100
0031
1000
,
0020
0000
0000
0000
0000
0100
0031
1000
,
0020
0000
0000
0000
0000
0100
0031
0001
,
2000
0000
0000
3200
,
0310
1000
0001
0100
0001
1000
0100
0001
,
1000
0010
0002
0000
0000
0000
0020
0003
,
0000
0000
0000
0030
,
0021
0000
0130
0001
2000
0000
3100
0001
,
2000
3002
0000
0023
,
0130
0001
1000
0001
2000
0000
3200
0000
,
2300
3002
0000
2003
,
3100
0001
1000
0010
2000
0000
3002
0000
,
2003
3020
0000
2030
,
3002
0000
0103
0001
2000
0000
3010
1000
,
0002
0000
0103
0001
2000
0000
3010
1000
,
0002
0000
0103
0001
2000
0000
3010
1000
,
0002
0000
0000
0000
0000
0000
0013
0100
,
0001
1000
0100
1000
0001
0010
0001
1000
,
0002
0000
0203
0000
0000
0000
0000
0310
,
0001
0010
0100
0010
0001
0010
1000
0100
,
0020
0000
0032
0000
0000
0000
0013
1000
,
0002
0000
0103
0001
2000
0000
0000
0000
,
3220
0000
0000
0000
,
1331
0000
1000
0010
0001
0000
1000
0010
0001
0000
1000
0010
0001
0000
1000
0000
,
0101
1000
0101
1000
0101
1000
0101
1000
,
0101
0000
0010
1000
0001
0100
0010
1000
0001
0100
0010
1000
0001
0000
1000
0000
,
0011
0100
0011
0100
0011
0100
0011
0100
,
0011
0000
0100
0001
1000
0010
0100
0001
1000
0010
0100
0001
1000
0000
0001
0000
,
0110
0001
1010
0001
1010
0100
1010
0001
,
1010
0000
0001
1000
0010
0000
0001
1000
0010
1000
0001
1000
0010
0000
1000
0000
,
0110
0001
0101
1000
0101
0001
0101
1000
,
0110
1010
0011
1100
,
0011
1010
0101
1001
,
0110
0000
0000
0000
1111
0000
0000
0000
2001
0000
0000
3000
0201
0000
0000
0300
,
2001
0000
0000
3000
0120
0000
0000
0030
2010
0000
0000
3000
1002
0000
0000
0003
,
0110
0011
0101
0011
,
1010
0000
0000
0000
1100
0000
0000
0000
0210
0000
0000
0300
0021
0000
0000
0030
,
1002
0000
0000
0003
0120
0000
0000
0030
0210
0000
0000
0300
1002
0000
0000
0003
,
0210
0000
1010
0300
0012
0000
0110
0003
,
1010
0000
0001
0000
1100
0000
0000
0000
1200
0000
0000
0300
0012
0000
0000
0003
,
2010
0000
0000
3000
0021
0000
0000
0030
2100
0000
0000
3000
0102
0000
0000
0003
,
0120
0000
0000
0030
2001
0000
0000
3000
0012
0000
0000
0003
2100
0000
0000
3000
,
0201
0000
0000
0300
0201
0000
0000
0300
0201
0000
0000
0300
0201
0000
0000
0300
,
1020
0000
0000
0030
1020
0000
0000
0030
1020
0000
0000
0030
1020
0000
0000
0030
,
1001
0110
1001
0011
,
1100
0000
1100
0000
0011
1100
0011
0000
,
1100
0010
0100
0010
0100
0010
0100
0010
,
0110
0001
0110
1000
0110
0001
0110
1000
,
0011
0100
0010
0100
0010
0100
0010
0100
,
0011
0100
0011
1000
0011
0100
0011
1000
,
0011
0100
0001
0100
0001
0100
0001
0100
,
0011
1000
0011
1000
0011
1000
0011
1000
,
0011
0100
0001
0100
0001
0100
0001
0100
,
1001
0001
1001
0001
1001
0001
1001
0001
,
1011
1000
1010
1000
1010
1000
1010
1000
,
1010
0001
1100
0010
1100
1000
0110
1000
,
0110
0022
0000
0000
,
0000
0000
0000
0000
,
0033
0000
0000
0000
;

//---------------dance-single - ----------------
#NOTES:
     dance-single:
     :
     Medium:
     17:
     1.000,1.000,1.000,0.323,1.000,1296.000,445.000,58.000,0.000,80.000:
0000
0000
0000
0000
,
0100
0010
0001
1000
0010
0100
0001
1000
,
0010
0000
1000
0000
0001
1000
0010
1000
0010
0001
0100
0001
1000
0010
1000
0001
,
0110
0001
1100
1001
0010
1100
1010
0001
,
0110
0001
0011
0101
1000
1100
0011
0011
,
1010
0001
0100
0001
1010
0001
0110
0001
1000
0001
0110
0001
1010
0001
0110
0001
,
1010
0011
1100
0011
,
1100
0000
0011
0000
0011
1100
0011
1100
,
0011
0100
0011
0011
0001
1100
1100
1000
,
0011
1000
0001
1000
0101
1000
0011
1000
0001
1000
0011
0100
0011
0100
0011
0100
,
0011
1000
0010
1000
0011
1000
0110
1000
0001
1000
0110
1000
0101
1000
0110
1000
,
0101
0011
1100
0011
,
0011
0000
1100
0000
0011
1100
0011
1100
,
0011
1000
0110
0110
1000
0110
0011
0110
,
0011
1000
0100
1000
0110
1000
0110
1000
0100
0001
0110
0001
0110
0001
0110
0001
,
0110
1000
0001
1000
0110
1000
0101
1000
0010
1000
0101
1000
0011
1000
0101
1000
,
0211
0011
0011
0311
,
1100
0011
1100
0011
,
1100
0000
1010
0000
0101
1010
1010
0101
,
1011
0010
1010
0010
1010
0010
1010
0010
,
1011
1000
1001
1000
1001
1000
1001
1000
,
1101
0100
1100
0100
1100
0100
1100
0100
,
1101
0001
1001
0001
1001
0001
1001
0001
,
1011
0000
0010
0000
0110
0000
0010
0000
0110
1000
0010
0001
0110
1000
0010
0001
,
0110
0000
1000
0010
0001
0000
1000
0010
0001
0000
1000
0010
0001
0000
1000
0000
,
0111
1000
0111
1000
0111
1000
0111
1000
,
0101
0000
1000
0100
0001
0000
1000
0100
0001
0000
1000
0100
0001
0000
1000
0000
,
1110
0001
1110
0001
1110
0001
1110
0001
,
0101
0000
1000
0001
0010
0000
1000
0001
0010
0000
1000
0001
0010
0000
0100
0000
,
1011
1000
1110
0100
0111
1000
1110
0100
,
0011
0000
1000
0010
0100
0000
1000
0010
0100
0000
1000
0010
0100
0000
1000
0000
,
1110
1000
1110
0001
0111
1000
0111
0001
,
0110
0001
1000
0100
1010
0100
0001
1000
0011
0100
0001
0010
1100
0010
1000
0100
,
0011
0100
0001
0100
1010
0001
1000
0010
0101
0010
1000
0100
1001
0100
0001
1000
,
0110
0001
1000
0000
1111
0000
0001
0000
0110
1000
0001
0000
1100
0001
1000
0000
,
0011
1000
0001
0000
0110
1000
0001
0000
0110
0001
1000
0000
1100
0001
1000
0000
,
0110
1000
0001
0100
0011
1000
0001
0000
0101
0010
1000
0100
0011
0100
0001
1000
,
0011
0000
0001
0010
1111
0000
0001
0000
0110
1000
0001
0000
0011
1000
0010
0000
,
1001
0010
1000
0000
0110
0001
1000
0000
0110
0001
1000
0000
1010
0001
0100
0000
,
1010
0001
0100
0001
1010
0001
0100
0000
0101
1000
0010
1000
0101
1000
0010
0000
,
1010
0000
0100
0001
1111
0000
0000
0000
1100
0001
1000
0000
0011
0100
0001
0000
,
0011
0100
0001
0000
0011
0100
0001
0000
1100
0010
1000
0000
1100
0010
1000
0000
,
0110
0001
1000
0010
1001
0100
0001
0100
1001
0010
1000
0001
0110
0001
1000
0010
,
0101
0010
1000
0100
1001
0010
0100
0010
1001
0100
0010
1000
0011
0100
0011
1000
,
0011
0100
0001
0100
1010
0001
1000
0100
1010
0001
0010
0001
1010
0100
1001
0010
,
1001
0100
0010
0100
1001
0010
0100
0010
1001
0100
0010
0100
1001
0010
0100
0010
,
2001
0010
0100
0001
0010
0001
0100
0001
0110
0000
0101
0000
3011
0000
0000
0000
,
0110
0001
0010
1000
0110
0001
0010
1000
0110
0001
0010
1000
0110
0001
0010
1000
,
0110
1000
0011
1000
0110
0001
1100
0001
0110
1000
0011
1000
0110
0001
1100
0001
,
0110
1000
0100
0001
0110
1000
0100
0001
0110
1000
0100
0001
0110
1000
0100
0001
,
1100
0010
0101
0010
1100
0001
0110
0001
1100
0010
0101
0010
1100
0001
0110
0001
,
1100
0010
0100
0010
1001
0010
0100
0010
1001
0010
0100
0010
1001
0010
0100
0010
,
1001
0010
0101
0010
1001
0100
1010
0100
1001
0010
0101
0010
1001
0100
1010
0100
,
1001
0100
0010
0100
1001
0100
0010
0100
1001
0100
0010
0100
1001
0100
0010
0100
,
0011
1000
0101
1000
0011
1000
0101
1000
0011
1000
0101
1000
0011
1000
0101
1000
,
0011
0100
1010
0100
0011
0100
1010
0100
0011
0100
1010
0100
0011
0100
1010
0100
,
0011
1000
0001
0010
1100
0001
0010
0001
1100
0010
0001
0010
1100
0001
0010
0001
,
0100
0000
0010
0000
0100
0000
0010
0000
1100
0001
1000
0001
1100
0001
1000
0001
,
2100
0000
3010
0100
0002
0000
1003
0100
,
2100
3012
0100
1023
,
1030
0001
0100
0001
1000
0000
0001
0000
,
1000
0012
1003
0120
,
0231
0000
0301
1000
0120
0000
1030
1000
,
0102
0000
1003
1000
0120
0000
1030
1000
,
0102
0000
1003
1000
0012
0000
0103
0100
,
1002
0000
1003
1000
0120
0000
1030
1000
,
0210
0000
1000
0000
0001
0010
1300
0001
,
1020
0000
0001
0000
1000
0100
0031
1000
,
0120
0000
0001
0000
1000
0100
0031
1000
,
0120
0000
0001
0000
1000
0100
0031
0001
,
2100
0010
0001
3210
,
0310
1000
0001
0100
0001
1000
0100
0001
,
1000
0010
0102
0000
1000
0000
0120
0003
,
1000
0000
0000
0000
0100
0000
0000
0000
1000
0100
1000
0100
0031
0100
1000
0100
,
0021
0000
0130
0001
2010
0000
3100
0001
,
2100
3012
0100
1023
,
0130
0001
1000
0001
2010
0000
3201
0000
,
2310
3102
0010
2103
,
3100
0001
1000
0010
2100
0000
3102
0000
,
2013
3120
0001
2130
,
3012
0000
0103
0001
2100
0000
3010
1000
,
0012
0000
0103
0001
2100
0000
3010
1000
,
0012
0000
0103
0001
2100
0000
3010
1000
,
0102
0000
0010
0000
1000
0000
0013
0100
,
0001
1000
0100
1000
0001
0010
0001
1000
,
0012
0000
0000
0000
1203
0000
0000
0000
0001
0000
0000
0000
1000
0001
0310
1000
,
0001
0010
0100
0010
0001
0010
1000
0100
,
1020
0000
0000
0000
0132
0000
0000
0000
1000
0000
0000
0000
0013
0100
0001
1000
,
0012
0000
0103
0001
2100
0000
0001
0000
,
3220
0000
0000
0000
0001
0000
0000
0000
1000
0001
1000
0001
1000
0001
1000
0001
,
1331
0000
1000
0010
0001
0000
1000
0010
0001
0000
1000
0010
0001
0000
1000
0000
,
0111
1000
0111
1000
0111
1000
0111
1000
,
0101
0000
0010
1000
0001
0100
0010
1000
0001
0100
0010
1000
0001
0000
0100
0000
,
1011
0100
1011
0100
1011
0100
1011
0100
,
1011
0000
0100
0001
1000
0010
0100
0001
1000
0010
0100
0001
1000
0000
0001
0000
,
1110
0100
1110
0001
1110
0100
1110
0001
,
1110
0000
0001
1000
0010
0100
0001
1000
0010
1000
0001
0000
0100
0000
1000
0000
,
0111
0001
0111
1000
1101
0001
0111
1000
,
1001
0100
0010
1000
0011
1000
0100
0010
0101
1000
0100
0001
1010
0001
0010
1000
,
0101
1000
0100
1000
0011
0100
0010
0001
1100
0001
0010
1000
0110
1000
0100
0010
,
1001
0000
0001
0010
1111
0000
0000
0000
1001
0010
0100
0000
1010
0100
0010
0000
,
0101
0010
0100
0000
1001
0010
0100
0000
1001
0100
0010
0000
1010
0100
0010
0000
,
1001
0010
0100
1000
0101
0010
0100
0000
1100
0001
0010
1000
0101
1000
0100
0010
,
0101
0000
0001
0000
1010
0000
0100
0000
1001
0010
0100
0000
0101
0010
0001
0000
,
0110
0001
0010
0000
1001
0100
0010
0000
1001
0100
0010
0000
0011
0100
1000
0000
,
0011
0100
1000
0100
0011
0100
1000
0000
1100
0010
0001
0010
1100
0010
0001
0000
,
0011
0000
1000
0100
1111
0000
0000
0000
1010
0100
0010
0000
0101
1000
0100
0000
,
0101
1000
0100
0000
0101
1000
0100
0000
1010
0001
0010
0000
1010
0001
0010
0000
,
1001
0100
0010
0000
0110
1000
0100
0000
0110
0001
0010
0000
1001
0100
0010
0000
,
1100
0001
0010
1000
0110
0001
1000
0001
0110
1000
0001
0010
0101
1000
0101
0010
,
0101
1000
0100
1000
0011
0100
0010
1000
0011
0100
0001
0100
0011
1000
0110
0001
,
0110
1000
0001
1000
0110
0001
1000
0001
0110
1000
0001
1000
0110
0001
1000
0001
,
0120
0000
0001
0100
0001
0000
0001
0100
0001
0000
0100
0000
0031
0000
0000
0000
,
1001
0100
0001
0010
1001
0100
0001
0010
1001
0100
0001
0010
1001
0100
0001
0010
,
1001
0010
0101
0010
1001
0100
1010
0100
1001
0010
0101
0010
1001
0100
1010
0100
,
1001
0010
1000
0100
1001
0010
1000
0100
1001
0010
1000
0100
1001
0010
1000
0100
,
1010
0001
1100
0001
1010
0100
1001
0100
1010
0001
1100
0001
1010
0100
1001
0100
,
1010
0001
1000
0001
0110
0001
1000
0001
0110
0001
1000
0001
0110
0001
1000
0001
,
0110
0001
1100
0001
0110
1000
0011
1000
0110
0001
1100
0001
0110
1000
0011
1000
,
0110
1000
0001
1000
0110
1000
0001
1000
0110
1000
0001
1000
0110
1000
0001
1000
,
0101
0010
1100
0010
0101
0010
1100
0010
0101
0010
1100
0010
0101
0010
1100
0010
,
0011
0100
1010
0100
0011
0100
1010
0100
0011
0100
1010
0100
0011
0100
1010
0100
,
1010
0001
0100
0001
1100
0001
0110
0001
1100
0001
1100
0001
0110
0001
1100
0001
,
0110
0022
0000
0000
,
0000
0000
0000
0000
,
0033
0000
0000
0000
;

//---------------dance-single - ----------------
#NOTES:
     dance-single:
     :
     Hard:
     19:
     1.000,1.000,1.000,0.133,1.000,1345.000,291.000,24.000,0.000,47.000:
0000
0000
0000
0000
,
0010
0001
0010
0100
1000
0001
0010
0100
,
1000
0100
0001
0010
0100
1000
0100
0010
0100
0001
0010
0100
1000
0001
0010
0100
,
1001
0010
0100
1000
0010
0001
0010
1000
,
0100
0010
0001
0010
0100
0010
0100
1000
0100
0001
0010
0100
1000
0001
0010
0100
,
0010
0100
1000
0100
0010
0100
1000
0100
0010
0100
1000
0100
0010
0100
1000
0100
,
2010
0011
0010
3011
,
0110
0000
1001
0000
0110
1000
0101
1000
,
0110
0001
0010
0100
1000
0001
0010
0100
,
0010
0001
0010
0100
1000
0001
0010
0100
0010
0001
0010
0100
1000
0010
0100
1000
,
0001
0010
0100
0010
0001
0010
0100
0010
0001
0010
0100
0010
0001
0010
0100
0010
,
2001
0011
0001
3011
,
1001
0000
0110
0000
1001
0100
1001
0100
,
1010
0001
0010
1000
0100
0001
0010
1000
,
0100
0001
0010
0100
1000
0010
0100
1000
0100
0001
0010
0100
1000
0100
0010
0100
,
0001
0010
1000
0100
0001
0010
1000
0100
0001
0010
1000
0100
0001
0010
1000
0100
,
2011
0101
0011
3101
,
1110
0101
1110
0101
,
0011
0000
0110
0000
0011
0110
0011
0110
,
1001
0010
1001
0010
1001
0010
1001
0010
,
1100
0010
1100
0010
1100
0010
1100
0010
,
1101
0001
1001
0001
1101
0001
1001
0001
,
0110
1000
0101
1000
0101
1000
0101
1000
,
1101
0000
0100
0000
0101
0000
0100
0000
1010
0100
0010
0100
0010
0100
0010
0100
,
0011
0000
1000
0010
1000
0000
0010
1000
0010
0000
1000
0000
0010
0000
1000
0000
,
0111
1000
0111
1000
0111
1000
0111
1000
,
0110
0000
0001
0100
0001
0100
0001
0100
0001
0000
0100
0000
0001
0000
0100
0000
,
1101
0010
1101
0010
1101
0010
1101
0010
,
1100
0000
0010
1100
0010
1100
0010
1100
0010
0000
1100
0000
0010
0000
0100
0000
,
1011
0100
1011
0100
1011
0100
1011
0100
,
1001
0000
0101
0010
0101
0010
0101
0010
0101
0000
0010
0000
0101
0000
1000
0000
,
1110
0001
0111
1000
1110
0001
0111
1000
,
0101
1000
0100
0010
1000
0001
0010
0100
0001
1000
0100
0010
1000
0010
1000
0100
,
0010
0001
0100
1000
0001
0010
0100
0010
0100
1000
0100
0010
0100
0001
1000
0100
,
0010
0000
0001
0010
1100
0000
1000
0100
0001
1000
0100
0010
0001
1000
0100
0010
,
0001
0010
0100
1000
0001
0010
0100
1000
0001
0010
0100
1000
0001
0010
0100
1000
,
0001
0100
0010
0001
1000
0100
0010
0001
0100
0010
1000
0100
0010
0100
0010
0001
,
1000
0000
0010
0100
1001
0000
0100
0010
0001
1000
0100
0010
0001
1000
0100
0010
,
0001
0010
0100
1000
0001
0010
0100
1000
0001
0010
0100
1000
0001
0010
0100
1000
,
0010
0001
0100
0010
1000
0100
0010
0001
0100
0010
1000
0001
1000
0100
0010
0001
,
0100
0000
1000
1000
0011
0000
1000
0100
0001
1000
0100
0010
0001
1000
0100
0010
,
0001
0010
0100
1000
0001
0010
0100
1000
0001
0010
0100
1000
0001
0010
0100
1000
,
0100
0010
0100
1000
0001
0010
0100
1000
0010
0001
0010
0100
0001
0010
0100
1000
,
0001
0100
0010
0100
0001
1000
0001
0100
0010
0001
1000
0100
0001
0010
0100
1000
,
0001
0100
0001
0010
0001
0100
0001
1000
0100
0010
0100
0010
0001
0010
1000
0100
,
0010
0001
0010
0001
0100
0010
0100
0010
1000
0100
1000
0100
1000
0010
1000
0010
,
2001
0000
0010
0001
0010
0000
0001
0010
0001
0000
0010
0000
3001
0000
0000
0000
,
0001
0100
0001
0010
0001
1000
0001
0100
0001
0010
0001
0100
0001
1000
0001
0100
,
0011
0100
0010
0100
0010
0100
0010
0100
0010
0100
0010
0100
0010
0100
0001
0000
,
1000
0010
0100
0001
0100
0010
1000
0010
0100
0001
0100
0010
1000
0010
0100
0011
,
1000
0001
1000
0001
1000
0001
1000
0001
1000
0001
1000
0001
1000
0001
1000
0100
,
1000
0100
0010
0100
1000
0100
0010
0100
1000
0100
0001
0100
1000
0100
0010
0100
,
1010
0100
1010
0100
1010
0100
1010
0100
1001
0010
1001
0010
1001
0010
1001
0010
,
1001
0100
0010
0100
0001
0010
1000
0100
0001
0010
1000
0100
0001
0010
1000
0100
,
0011
1000
0011
1000
0011
1000
0011
1000
0011
1000
0011
1000
0011
1000
0011
1000
,
0110
0001
0110
0001
0110
0001
0110
0001
0110
0001
0110
0001
0110
0001
0110
0001
,
1010
0100
1000
0100
0010
0001
0100
0010
1000
0010
1000
0100
0010
0001
1000
0100
,
0001
0000
1000
0000
0001
0000
1000
0000
0001
1000
0001
1000
0001
1000
0001
1000
,
0110
0000
0000
0000
0000
0000
0000
0000
0001
0000
0000
0000
0010
0001
0010
0000
0100
0000
0000
0000
0000
0000
0000
0000
0010
0000
0000
0000
0100
0000
0000
0000
,
0001
2000
0000
3100
,
0001
0000
0000
0000
0100
0010
0100
0000
1000
0000
0000
0000
0010
0000
0000
0000
0100
0000
0000
0000
0000
0000
0000
0000
0010
0001
0000
0000
0000
0000
0000
0000
,
0001
0020
0000
0031
,
1000
0000
0100
0010
0001
0000
0100
0010
,
1000
0000
0001
0010
0100
0000
0010
0001
,
1000
0000
0010
0100
1000
0000
0100
0001
,
1000
0000
0100
0010
0001
0000
0100
0010
,
2000
0000
0000
0000
3100
0010
1000
0010
,
0002
0000
0000
0000
0000
0000
0000
0000
0000
0003
0100
0000
1000
0000
0100
0000
,
0020
0000
0000
0000
0030
0100
1000
0100
,
0010
0002
0000
0000
0000
0013
0100
0010
,
0001
0000
0000
0000
0000
0000
0000
0000
0100
0000
0000
0000
0000
0000
0000
0000
0100
0000
0000
0000
1000
0000
0000
0000
0010
0001
0000
0000
0000
0000
0000
0000
,
0001
0000
0000
0000
0010
0001
0010
0000
0100
0000
0000
0000
1000
0000
0000
0000
0001
0000
0000
0000
0100
0010
0100
0000
1000
0000
0000
0000
0100
0000
0000
0000
,
0010
0000
0001
0000
0010
0001
0010
0001
0010
0001
0010
0001
0010
0000
0000
0000
,
0200
0000
0001
0000
0001
0001
0001
0301
,
0110
0000
0000
0000
0000
0000
0000
0000
0001
0000
0000
0000
0100
0010
0100
0000
1000
0000
0000
0000
0000
0000
0000
0000
0100
0000
0000
0000
0010
0000
0000
0000
,
0001
0200
0000
1300
,
0001
0000
0000
0000
0100
0010
0100
0000
1000
0000
0000
0000
0100
0000
0000
0000
1000
0000
0000
0000
0000
0000
0000
0000
0010
0001
0000
0000
0000
0000
0000
0000
,
0001
0020
0000
0130
,
1000
0000
0000
0000
0100
1000
0100
0000
0001
0000
0000
0000
0010
0000
0000
0000
0001
0000
0000
0000
0000
0000
0000
0000
1000
0000
0000
0000
0000
0000
0000
0000
,
1000
0200
0000
1300
,
0001
0000
0010
0100
1000
0000
0001
0010
,
0100
0000
1000
0100
0010
0000
0001
1000
,
0010
0000
0001
1000
0100
0000
0010
0001
,
2000
0000
0000
0000
0000
0000
3100
0010
,
0001
0010
0100
1000
0100
0010
0001
0100
,
0010
0001
0010
0000
0000
0000
0000
0000
2000
0000
0000
0000
0000
0000
0000
0000
0000
0000
0000
0000
0000
0000
0000
0000
3100
0000
0000
0000
0010
0000
0000
0000
,
0001
0010
0100
1000
0100
0010
0001
0100
,
0010
0001
0010
0000
0000
0000
0000
0000
2000
0000
0000
0000
0000
0000
0000
0000
0000
0000
0000
0000
0000
0000
0000
0000
3100
0000
0000
0000
0010
0000
0000
0000
,
1000
0000
0001
0010
0200
0000
0000
0000
,
0302
0000
0000
0000
0000
0000
0000
0003
,
0110
0000
0010
0100
0010
0000
0100
0010
0100
0000
0010
0000
0100
0000
0010
0000
,
1101
0010
1101
0010
1101
0010
1101
0010
,
0101
0000
0101
1000
0101
1000
0101
1000
0101
0000
1000
0000
0101
0000
0010
0000
,
1110
0001
1110
0001
1110
0001
1110
0001
,
1100
0000
0011
1100
0011
1100
0011
1100
0011
0000
1100
0000
0011
0000
1100
0000
,
1111
1000
1111
0001
1111
1000
1111
0001
,
0110
0000
1001
0110
1001
0110
1001
0110
1001
0000
0110
0000
1001
0000
0110
0000
,
1011
1000
1101
0100
1110
0010
0111
0001
,
0110
1000
0100
0010
0101
0010
0100
1000
0101
1000
0100
0010
0101
0010
1000
0100
,
1010
0100
0010
0001
1010
0001
0100
0010
0101
1000
0100
0010
1100
0001
0100
0010
,
1001
0000
0110
0110
1001
0000
1000
0100
0011
1000
0100
0010
0101
1000
0100
0010
,
1001
0010
0100
1000
0101
0010
0100
1000
0101
0010
0100
1000
0101
0010
0100
1000
,
0011
0100
0010
0001
1010
0100
0010
0001
1010
0100
1000
0100
0011
0100
0010
0001
,
1100
0000
0011
0011
1100
0000
0100
0010
0101
1000
0100
0010
0101
1000
0100
0010
,
1001
0010
0100
1000
0101
0010
0100
1000
0101
0010
0100
1000
0101
0010
0100
1000
,
0110
0001
0100
0010
1001
0100
0010
0001
1010
0100
1000
0001
1010
0100
0010
0001
,
0110
0000
1001
1001
0110
0000
1000
0100
0011
1000
0100
0010
0101
1000
0100
0010
,
1001
0010
0100
1000
0101
0010
0100
1000
0101
0010
0100
1000
0101
0010
0100
1000
,
0110
0001
0010
1000
0101
0010
0100
1000
0110
0001
0010
0100
1001
0010
0100
1000
,
0001
0100
0010
0100
0001
1000
0001
0100
0010
0001
1000
0101
0101
1010
0001
0100
,
1000
0100
0001
0010
0001
0100
0001
1000
0100
0001
1010
1010
0101
1000
0010
0100
,
0010
0001
0010
0001
0100
0010
0100
0010
1000
0100
1010
0101
1010
0100
1000
0010
,
2001
0000
0010
0001
0010
0000
0001
0010
0001
0000
0010
0000
3001
0000
0000
0000
,
0011
0100
0010
1000
0010
0100
0001
0100
0001
0010
0001
0100
0010
1000
0001
0100
,
0011
0000
1100
0011
1100
0011
1100
0011
1100
0011
1100
0011
1100
0011
1100
0011
,
1000
0001
0100
0010
1000
0010
0100
0010
1000
0001
0100
0010
0100
0001
1000
0010
,
0101
0000
1010
0101
1010
0101
1010
0101
1010
0101
1010
0101
1010
0101
1010
0101
,
0010
0100
1000
0100
0010
0100
1000
0100
0001
0100
1000
0100
0010
0100
1000
0100
,
1001
0010
1001
0010
1001
0010
1001
0010
1001
0100
1010
0100
1010
0100
1010
0100
,
1010
0001
0100
1000
0010
0001
0100
1000
0010
0001
0100
1000
0010
0001
0100
1000
,
0010
0101
1010
0101
1000
0110
1001
0110
1000
0101
1010
0101
1000
0110
1001
0110
,
1000
0011
0110
0001
1100
0011
0110
0001
1100
0011
0110
0001
1100
0011
0110
0001
,
0100
1001
0100
1001
0100
0011
1000
0101
0010
1001
0010
0100
0011
0100
1001
0100
,
1011
2222
0000
0000
,
0000
0000
0000
0000
,
3333
0000
0000
0000
;

//---------------dance-solo - ----------------
#NOTES:
     dance-solo:
     :
     Hard:
     20:
     1.000,1.000,1.000,0.133,1.000,1348.000,340.000,24.000,0.000,54.000:
000000
000000
000000
000000
,
001000
000010
000100
000001
010000
000100
000010
001000
,
001000
000100
000010
000100
001000
010000
100000
010000
001000
000010
000100
001000
010000
100000
010000
001000
,
010100
100000
000001
010000
101000
010000
000010
001000
,
010000
100000
000100
010000
010000
000010
001000
010000
100000
010000
000100
001000
010000
000010
001000
010000
,
001000
000100
001000
100000
001000
000010
100000
010000
000100
010000
001000
000001
000010
010000
000100
010000
,
012000
000110
000010
103100
,
010100
000010
100001
000000
101000
000010
010010
000100
,
101000
010000
000010
100000
010000
000100
000010
100000
,
001000
010000
000010
001000
100010
001000
000010
010000
101000
000100
010000
000010
100100
010000
000010
100000
,
000010
000100
010000
100000
000100
000010
010000
100000
000100
000010
100000
010000
000010
000100
100000
001000
,
010002
010100
001000
001103
,
110000
000000
100100
000000
010100
001000
110000
000100
,
110000
001000
001000
000100
010000
100000
001000
000100
,
010000
000100
000010
001000
100100
000010
001000
100000
010010
100000
001000
000010
110000
000100
100000
010000
,
000100
010000
001000
010000
100000
000010
001000
010000
100000
001000
000100
000010
100000
010000
000100
010000
,
210100
001010
010100
311000
,
110010
011000
110010
001100
,
100100
000000
010010
000000
100100
010000
010100
010010
,
100000
010000
001000
000100
010000
000010
100000
000100
,
100010
010000
100100
010000
100100
010000
100100
100000
,
101100
000010
100100
000010
100110
001000
110000
000010
,
011000
100010
010100
100000
001010
010000
010100
100000
,
110100
000000
001000
000000
100100
000000
010000
000000
110000
001000
000100
100000
000010
010000
001000
010000
,
001001
000000
100000
000100
010000
000000
001000
000100
010000
000000
000100
000000
100000
000000
001000
000000
,
011000
001000
010100
000010
010100
000010
001100
001010
,
101000
000000
001000
100000
000100
001000
000010
010000
000001
000000
001000
000000
010000
000000
000010
000000
,
011001
000100
011100
100000
100110
010000
101100
100000
,
100100
000000
001000
100100
000010
100100
010000
100100
000010
000000
010100
000000
001000
000000
000100
000000
,
101010
010000
100110
000100
011100
000010
001110
100000
,
100100
000000
100010
100000
001001
100000
010010
001000
010001
000000
000100
000000
010010
000000
001000
000000
,
110010
001000
100110
001000
100110
010000
101010
010000
,
010010
001000
000100
000010
100000
010000
000010
100000
000100
001000
010000
000001
000100
001000
000010
010000
,
001000
000100
001000
100000
000101
000010
100000
000100
000010
001000
010000
000100
010010
001000
100000
010000
,
001000
000000
000001
010000
100100
000000
000001
010000
001100
000001
100000
001000
000011
000100
100000
001000
,
000100
000010
010000
100000
000101
010000
000010
100000
000001
100000
001000
000001
010010
000100
001000
100000
,
001010
010000
000100
000001
110000
000010
001000
000100
010001
001000
010000
000100
000010
010000
000100
000001
,
110000
000000
000010
000100
101000
000000
000010
010000
000110
100000
000001
000100
000110
010000
100100
000001
,
000100
000010
010000
001000
000010
000100
001000
100000
000001
000010
000100
010000
000001
000100
000010
010000
,
001000
000010
010000
000001
010100
010000
000010
000100
010010
000100
001000
000001
100100
000010
001000
000100
,
001000
000000
100000
010000
001001
000000
000010
100000
000100
000010
001000
000001
110000
000100
100000
000001
,
000100
010000
001000
000100
000010
000100
001000
100000
010010
000001
000100
010000
000110
000001
001000
100000
,
000100
010000
000010
100000
000100
000010
000001
100000
010000
001000
010000
001000
010000
000100
010000
001000
,
000100
100000
000001
010000
000110
100000
001000
000010
000001
001000
100000
010000
000110
000001
010000
100000
,
000100
001000
000010
100000
001000
000100
000010
001000
010000
000010
100000
000001
000010
000100
100000
000100
,
001000
000010
100000
000001
010100
000010
010000
000100
101000
000100
001000
000010
000101
010000
100000
000010
,
021100
000000
001000
000010
000100
000000
000001
100000
000110
000000
001000
000000
030100
000000
000000
000000
,
000010
001000
010000
000100
010010
100000
000001
010000
000010
001000
000001
010000
000110
001000
000001
010000
,
001010
010000
000001
010000
000010
010000
001000
010000
000010
010000
001000
010000
000100
010000
001000
010000
,
000100
100000
000100
000010
101000
010000
000100
100000
000010
100000
001000
010000
000100
000010
001000
010000
,
001100
100000
000100
010000
000100
001000
000010
010000
000100
100000
000010
010000
000100
000010
010000
001000
,
000100
001000
000100
010000
001010
001000
100000
000010
001000
000100
010000
000010
000100
001000
000100
000010
,
100100
010000
101000
000010
100100
001000
100010
010000
100100
000010
001001
010000
001010
000100
100001
001000
,
010000
000010
001000
010000
100000
000010
001000
100000
000100
000010
100000
001000
000010
000100
001000
010000
,
001010
100000
001010
100000
010100
100000
010001
100000
001100
100000
010010
100000
001100
100000
001001
100000
,
011000
000100
011000
000100
000011
000100
011000
000100
000011
000100
011000
000100
000011
000100
011000
000100
,
101000
000100
001000
010000
100000
000010
000100
010000
000100
000010
001000
010000
100000
001000
000010
100000
,
001000
000000
100000
000000
000010
000000
010000
000000
000100
100000
010000
001000
000001
010000
000010
100000
,
010100
000000
000000
000000
000000
000000
000000
000000
100000
000000
000000
000000
010000
000010
000100
000000
100000
000000
000000
000000
000000
000000
000000
000000
001000
000000
000000
000000
100000
000000
000000
000000
,
010000
002000
000000
003010
,
001001
000000
000000
000000
010000
001000
000010
000000
100000
000000
000000
000000
000100
000000
000000
000000
100000
000000
000000
000000
000000
000000
000000
000000
010000
000010
000000
000000
000000
000000
000000
000000
,
100000
002000
000000
003100
,
000100
000000
100000
010000
000010
000000
000100
010000
,
001000
000000
000010
000100
010010
000000
010000
000100
,
101000
000000
001000
000100
001000
000000
000010
000001
,
001000
000000
000010
010000
100000
000000
010000
000010
,
000002
000000
000000
000000
000103
000010
000100
001000
,
000020
000000
000000
000000
000000
000000
000000
000000
000000
000030
000100
000000
001000
000000
100000
000000
,
200000
000000
000000
000000
300000
001000
000100
100000
,
000010
000200
000000
000000
000000
010300
100000
010000
,
001000
000000
000000
000000
000000
000000
000000
000000
000010
000000
000000
000000
000000
000000
000000
000000
000001
000000
000000
000000
100000
000000
000000
000000
010000
000100
000000
000000
000000
000000
000000
000000
,
000010
000000
000000
000000
100000
000100
001000
000000
000010
000000
000000
000000
010000
000000
000000
000000
001000
000000
000000
000000
000010
001000
010000
000000
000100
000000
000000
000000
100000
000000
000000
000000
,
001000
000000
000100
000000
010000
000010
100000
000100
001000
000010
010000
001000
001000
100000
000000
000000
,
020000
000000
000100
000000
000001
000010
031000
000001
,
010100
000000
000000
000000
000000
000000
000000
000000
001010
000000
000000
000000
001000
010000
000001
000000
100100
000000
000000
000000
000000
000000
000000
000000
000010
000000
000000
000000
000001
000000
000000
000000
,
001000
000020
000000
001030
,
100000
000000
000000
000000
000100
001000
000010
000000
001000
000000
000000
000000
100000
000000
000000
000000
100000
000000
000000
000000
000000
000000
000000
000000
000001
010000
000000
000000
000000
000000
000000
000000
,
001000
000200
000000
010310
,
010000
000000
000000
000000
000010
100000
001000
000000
100100
000000
000000
000000
001000
000000
000000
000000
001100
000000
000000
000000
000000
000000
000000
000000
100010
000000
000000
000000
000000
000000
000000
000000
,
001000
000200
000000
011300
,
000100
000000
000010
001000
100010
000000
010010
001000
,
100000
000000
000100
010000
100000
000000
000100
100000
,
000010
000000
001000
000100
100000
000000
000001
000100
,
002000
000000
000000
000000
000000
000000
013010
001000
,
000110
100000
001000
000100
010000
001000
000001
010000
,
001000
000100
010000
000000
000000
000000
000000
000000
002000
000000
000000
000000
000000
000000
000000
000000
000000
000000
000000
000000
000000
000000
000000
000000
103000
000000
000000
000000
010000
000000
000000
000000
,
000100
000010
001000
010000
100000
010000
000011
100000
,
001000
000010
010000
000000
000000
000000
000000
000000
002000
000000
000000
000000
000000
000000
000000
000000
000000
000000
000000
000000
000000
000000
000000
000000
003100
000000
000000
000000
000010
000000
000000
000000
,
010000
000000
001100
100000
002000
000000
000000
000000
,
003020
000000
000000
000000
000000
000000
000000
000030
,
010100
000000
000100
100000
000010
000000
000100
001000
000100
000000
100000
000000
000100
000000
000010
000000
,
110100
000010
101100
000010
101100
001000
101100
000010
,
010100
000000
010100
100000
010010
100000
010001
100000
010100
000000
001000
000000
010001
000000
000100
000000
,
111000
000010
110100
000010
111000
000100
110100
000001
,
110000
000000
000110
110000
000011
101000
000110
110000
001100
000000
100010
000000
010100
000000
100010
000000
,
111001
000100
110110
000001
111010
001000
101110
010000
,
011000
000000
100010
011000
100001
010100
100010
010001
101000
000000
010010
000000
101000
000000
010010
000000
,
100101
010000
101100
000010
110100
000010
101001
000010
,
011000
100000
001000
000100
001010
000100
000010
100000
011010
100000
000100
001000
010100
000001
100000
000010
,
101000
010000
001000
000100
101001
000100
010000
001000
010110
100000
010000
001000
110010
000100
010000
001000
,
100100
000000
010010
011000
100100
000000
100010
010000
000101
100000
001000
000010
010101
100000
000010
001000
,
100001
000100
001000
100000
010010
000100
010000
000010
010100
000001
010000
001000
010100
000001
001000
100000
,
001010
010000
100000
000010
001100
100000
010000
000100
100001
001000
100000
010000
000110
100000
000001
000100
,
110000
000000
001010
001100
100010
000000
000100
001000
010001
100000
000100
001000
010010
100000
000010
010000
,
100100
000010
001000
100000
010100
000001
001000
000010
010100
000010
000100
100000
010010
001000
010000
100000
,
011000
000100
010000
001000
100010
000100
010000
000100
001010
000100
100000
010000
100101
001000
000010
000100
,
010010
000000
100100
101000
010010
000000
000100
010000
001001
100000
010000
001000
000110
100000
010000
001000
,
100100
000010
010000
100000
010001
000100
001000
010000
001010
001000
000010
100000
010100
001000
010000
100000
,
010001
000100
000010
100000
000110
100000
010000
100000
010010
000100
000001
001000
010010
000100
000001
100000
,
000100
010000
001000
010000
000010
001000
000001
100000
010000
000010
100000
001001
000110
100001
001000
000100
,
100000
000010
000100
000001
010010
001000
000001
100000
000100
010000
100010
001100
010001
100000
000100
100000
,
001000
000100
001000
000100
010000
100000
000100
000010
001000
000100
001010
100100
101000
000010
100000
001000
,
020001
000000
000010
000100
000010
000000
000001
000010
000100
000000
000010
000000
030001
000000
000000
000000
,
000011
100000
000010
001000
000010
001000
000001
100000
000001
000010
000001
001000
000010
010000
000001
100000
,
001100
000000
110000
001010
100100
001001
110000
001100
100100
001010
110000
001000
110000
001001
110000
001100
,
010000
000100
010000
000010
001000
000001
010000
000100
010000
000001
001000
000010
010000
000100
100000
001000
,
010100
000000
100010
001100
100010
010100
100010
000101
101000
010010
101000
000110
100100
001010
100001
010100
,
001000
000100
100000
000100
000010
000001
100000
010000
000100
000100
100000
000100
000001
001000
000010
010000
,
100100
001000
100100
000010
010100
000010
010001
001000
100100
000010
010001
000010
100100
000010
101000
010000
,
000100
000010
100000
010000
000100
000010
100000
001000
000001
000100
100000
000010
000100
001000
010000
001000
,
010001
100010
010100
100000
001010
100100
010010
100000
000110
101000
000110
001000
010100
000011
011000
100000
,
001100
010010
001000
100010
001001
010100
000010
110000
001010
010001
001000
100100
000110
010001
000100
001000
,
100100
001000
100100
000010
001010
100000
010001
001000
100100
000010
010001
000100
001010
100000
001100
010000
,
101010
022202
000000
000000
,
000000
000000
000000
000000
,
033303
000000
000000
000000
;
